#TITLE:试着学;
#SUBTITLE:;
#ARTIST:李贞贤;
#TITLETRANSLIT:;
#SUBTITLETRANSLIT:;
#ARTISTTRANSLIT:;
#CREDIT:;
#BANNER:8-logo.jpg;
#BACKGROUND:8.jpg;
#LYRICSPATH:;
#CDTITLE:Lan.png;
#MUSIC:8.mp3;
#OFFSET:-0.040;
#SAMPLESTART:100.000;
#SAMPLELENGTH:12.000;
#SELECTABLE:YES;
#BPMS:0.000=131.060;
#STOPS:;
#BGCHANGES:;
// cache tags:
#FIRSTBEAT:12.000;
#LASTBEAT:264.000;
#SONGFILENAME:Songs/SDO 2/8/8.sm;
#HASMUSIC:1;
#HASBANNER:1;
#MUSICLENGTH:124.582;
// end cache tags

//---------------dance-single - 标准----------------
#NOTES:
     dance-single:
     标准:
     Hard:
     7:
     0.646,0.689,0.498,0.000,0.008,492.000,62.000,0.000,0.000,7.000:


0000
0000
0000
0000
,
0000
0000
0000
0000
,
0000
0000
0000
0000
,
0001
0010
0100
1000
0100
0010
0001
0010
,
0100
0010
0001
0100
1000
0010
0001
0100
,
0001
0000
0010
0000
1000
0000
0010
0000
0100
0000
0001
0000
0000
0010
0000
0000
,
1001
1001
1001
0100
0001
1010
1010
1010
,
0100
0010
0010
0001
0010
0100
0010
1000
,
0100
0010
0001
0010
0001
1000
0100
1000
,
0010
0001
0010
0100
0010
1000
0001
0100
,
0010
0100
0001
1000
0010
0100
0001
1000
,
0100
0010
0001
0010
0100
0010
0001
0010
,
0001
1000
1000
0100
0010
0001
0001
0010
,
0100
0010
1000
0001
0100
0010
0100
0001
,
1000
0100
0010
1000
0001
0100
0010
0001
,
1000
0010
0100
0001
0100
1000
0010
0001
,
0010
0100
1000
0100
0010
0001
0010
0100
,
1000
1000
0100
1000
0010
0001
0100
0010
,
1000
0001
0100
1000
0010
0001
0010
0100
,
0010
1000
0001
0010
0001
1000
0001
0100
,
0010
1000
0001
0010
1000
0100
0010
0001
,
1000
0010
0100
0001
0010
0100
0001
1000
,
0100
0010
0100
0001
0010
1000
0100
0001
,
0010
1000
0100
0001
0010
1000
0100
0001
,
0100
0010
1000
0100
0010
0100
0001
0010
,
0001
0100
1000
0010
0001
0100
0010
1000
,
0001
0010
1000
0100
0010
0100
0001
0100
,
1000
0001
0010
0100
0001
1000
0010
0010
,
1100
1010
0011
0101
0100
0001
0010
1000
,
0010
0001
1000
0100
0010
0100
0001
0010
,
1000
0100
0001
0100
0010
0001
1000
0100
,
0001
0011
0010
0100
1100
1000
0010
0011
,
0001
1010
0100
0101
0100
1010
0100
0010
,
0001
0011
0011
0011
0011
0100
0010
0101
,
0010
0100
0000
1001
1001
1001
1001
0010
,
0101
0010
1100
1100
1100
1100
0001
0010
,
0100
1010
0100
0010
1000
0100
1001
0010
,
1000
0110
0110
0110
0110
0001
0011
1000
,
0101
1000
0010
0101
0101
0101
0101
0010
,
1000
0001
1010
1010
1010
1010
0001
0010
,
0100
1010
0100
0010
1000
0001
0010
0100
,
1001
0000
1011
0000
1001
0100
0010
0000
,
1001
0100
0010
0100
0010
0001
0110
1000
,
1001
0000
0100
0010
1000
0100
0001
0010
,
1001
0000
0000
0000
0000
1111
0000
0000
1011
0000
0000
0000
1101
0000
0000
0000
,
1111
0000
1000
0010
0000
0001
1000
0100
,
0101
0010
1000
0100
0001
0010
0100
0010
,
1000
0001
0100
0010
1000
0001
0001
0100
,
0001
0010
1000
0010
0100
0001
0010
1000
,
0100
0001
0010
0100
0010
1000
0100
0010
,
0001
0100
0010
0001
0100
1000
0100
0010
,
0001
0010
1000
0100
0010
0001
0001
0010
,
0100
1000
0010
0100
0001
0010
1000
0100
,
0010
0001
0100
0010
1000
0001
0100
0010
,
1000
0010
0001
0100
0010
1000
0100
0010
,
0001
0100
1000
0010
0001
0010
1000
0100
,
0001
0010
0001
0100
1000
0100
1000
0010
,
0110
1011
0001
0010
1000
0100
0010
0001
,
0010
0100
1000
0100
0010
0001
0010
0001
,
1000
0010
0100
0001
0010
1000
0100
0001
,
0010
0100
0001
1000
0010
0100
0001
0010
,
1000
0010
0001
0100
0010
1000
0010
0100
,
0010
1000
0001
0001
0010
0100
0010
1000
,
0010
0001
0100
0010
1000
0001
0010
0010
,
0001
0100
1000
0010
0100
0001
0010
0100
,
1000
0010
0100
0100
1000
0100
0010
0000
,
1110
0000
0000
0000
;
